Сегодня идет свободное скачивание без начисления Download

Результатов поиска: 5

Автор Сообщение

XP1971

Пост 22-Июл-2017 15:39

[Цитировать]

Глазастая и дырявошная \ Rebecca Rainbow - Busty and Lusty Дата выпуска: 01.06.2017
Страна: Russia
Студия: TheArtPorn.com \ WTFPass.com
Истинное название клипа: Эпизод #02 из Private Specials 147: Cute & Tight Holes.
Жанр: Teen, oral, Anal, Brunette, Deep throat, Licking, Piercing, Tattoo.
Продолжительность: 20 м. 24 c.
Язык: Russian
Перевод: Зачем...
Источник/Качество: FullHD
Видео кодек: AVC
Аудио кодек: AAC
Формат видео MP4
Видео: Advanced Video Codec 1920x1080 25.000 кадр/сек 2727 Кбит/сек
Аудио: Advanced Audio Codec 44.1 kHz stereo 160 Кбит/сек

Скриншоты

               

Скринлист

XP1971

Пост 16-Июл-2017 15:30

[Цитировать]

-Как добраться мне потом отсюда?
-- Студия: N/A
Режиссёр: N/A
Страна: Россия
Год выпуска: 2017 г.
Продолжительность: 00:13:28
Жанр: Amateur, Blowjob, Dogging
Оригинальный аудиопоток: русский-В ролях: Любовники-Описание:
В отсутствии жены мужик привёз к себе на дачу борзую залётную подругу, ну и давай оне совать его пипиську ей во все щели. И так и сяк почпокались и тут подруга задаёт вопрос: слышь, а как мне сейчас отсюда слинять до дома? А у мужика уже прИход, ему уже по барабану. На автобусе, говорит, тебе в самый раз. Обидел душевно давалку, нет слов. Присутствуют забавные диалоги)-
Контейнер: MP4
Видео кодек: AVC
Аудио кодек: AAC
Cубтитры: отсутствуют
Качество видео: CamRip
Стандарт разрешения: 720p
Аудио: Advanced Audio | 44.1 KHz | 2 ch | 76.0 Kbps
Видео: Advanced Video | 1280х720 | 1980 Кbps | 29.970 fps | 0.072 bit/pixel

Media Info

Код:
Общее
Полное имя : Kak_dobiratsya_potom_mne_otsyuda.mp4
Формат : MPEG-4
Профиль формата : Base Media
Идентификатор кодека : isom (isom/iso2/avc1/mp41)
Размер файла : 199 Мбайт
Продолжительность : 13 м. 28 с.
Режим общего битрейта : Переменный
Общий поток : 2065 Кбит/сек
Программа кодирования : Lavf56.25.101
Видео
Идентификатор : 1
Формат : AVC
Формат/Информация : Advanced Video Codec
Профиль формата : [email protected]/*  */
Параметр CABAC формата : Да
Параметр ReFrames формата : 4 кадра
Идентификатор кодека : avc1
Идентификатор кодека/Информация : Advanced Video Coding
Продолжительность : 13 м. 28 с.
Битрейт : 1980 Кбит/сек
Ширина : 1280 пикселей
Высота : 720 пикселей
Соотношение сторон : 16:9
Режим частоты кадров : Постоянный
Частота кадров : 29,970 (30000/1001) кадров/сек
Цветовое пространство : YUV
Субдискретизация насыщенности : 4:2:0
Битовая глубина : 8 бит
Тип развёртки : Прогрессивная
Бит/(Пиксели*Кадры) : 0.072
Размер потока : 191 Мбайт (96%)
Библиотека кодирования : x264 core 142
Настройки программы : cabac=1 / ref=3 / deblock=1:0:0 / analyse=0x3:0x113 / me=hex / subme=7 / psy=1 / psy_rd=1.00:0.00 / mixed_ref=1 / me_range=16 / chroma_me=1 / trellis=1 / 8x8dct=1 / cqm=0 / deadzone=21,11 / fast_pskip=1 / chroma_qp_offset=-2 / threads=6 / lookahead_threads=1 / sliced_threads=0 / nr=0 / decimate=1 / interlaced=0 / bluray_compat=0 / constrained_intra=0 / bframes=3 / b_pyramid=2 / b_adapt=1 / b_bias=0 / direct=1 / weightb=1 / open_gop=0 / weightp=2 / keyint=30 / keyint_min=3 / scenecut=40 / intra_refresh=0 / rc_lookahead=30 / rc=2pass / mbtree=1 / bitrate=1980 / ratetol=1.0 / qcomp=0.60 / qpmin=0 / qpmax=69 / qpstep=4 / cplxblur=20.0 / qblur=0.5 / ip_ratio=1.40 / aq=1:1.00
Аудио
Идентификатор : 2
Формат : AAC
Формат/Информация : Advanced Audio Codec
Профиль формата : LC
Идентификатор кодека : 40
Продолжительность : 13 м. 28 с.
Вид битрейта : Переменный
Битрейт : 76,0 Кбит/сек
Максимальный битрейт : 192 Кбит/сек
Каналы : 2 канала
Channel(s)_Original : 1 канал
Расположение каналов : Front: C
Частота : 44,1 КГц
Частота кадров : 43,066 кадра/сек (1024 spf)
Метод сжатия : С потерями
Размер потока : 7,32 Мбайт (4%)
Default : Да
AlternateGroup/String : 1

Скринлист

Скриншоты

                               

XP1971

Пост 01-Апр-2017 20:24

[Цитировать]

-Кому всунешь, ту и чпокнешь-- Страна: Russia
Год выпуска: 2010 г.
Режиссер: Сергей Логинов
Продолжительность: 03:01:03
Студия: Кинокомпания «Клубничка»
Оригинальный аудиопоток: русский
Жанр: Feature, Anal Sex, Russian Girls-В ролях:
Оля Захарова, Таня Легенда, Злата Козак, Тася Кошечкина, Лида Хорошева, Злата Пинки, Лена Нимфа, Гуля Мамедова, Ева Скворцова, Тина Радзивилл, Люся Ресничкина, Дима Стрелков-Описание:
Продолжение фильма «Сибирский бурильщик». На этот раз разговоров мало, зато самого секса много! Прибывший с берегов озера Байкал сибирский бурильщик Дима Стрелков тормозить не желает. Он продолжает чпокать девушек западной части России. В этом фильме 11 девушек. Весёлый фильм, 100% реалити из жизни граждан России. Приятного просмотра.-
Контейнер: AVI
Аудио кодек: AC3
Видео кодек: AVC
Cубтитры: отсутствуют
Качество видео: DVDRip
Аудио: Advanced Audio | 48.0 KHz | 2 ch | 128.0 Kbps
Видео: AVC | 720х576 | 1024 Kbps | 25.0 fps | 0.197 bit/pixel

Media Info

Код:
Общее
Полное имя : Кому всунешь, ту и чпокнешь_[...].avi
Формат : AVI
Формат/Информация : Audio Video Interleave
Профиль формата : OpenDML
Размер файла : 2,76 Гбайт
Продолжительность : 3 ч. 1 м.
Общий поток : 2182 Кбит/сек
Программа кодирования : Lavf56.36.100
Видео
Идентификатор : 1
Формат : AVC
Формат/Информация : Advanced Video Codec
Профиль формата : [email protected]/*  */
Параметр CABAC формата : Да
Параметр ReFrames формата : 1 кадр
Параметр GOP формата : M=1, N=25
Идентификатор кодека : H264
Продолжительность : 3 ч. 1 м.
Битрейт : 2044 Кбит/сек
Ширина : 720 пикселей
Высота : 576 пикселей
Соотношение сторон : 16:9
Соотношение сторон в оригинале : 1,738
Частота кадров : 25,000 кадров/сек
Стандарт вещания : PAL
Цветовое пространство : YUV
Субдискретизация насыщенности : 4:2:0
Битовая глубина : 8 бит
Тип развёртки : Прогрессивная
Бит/(Пиксели*Кадры) : 0.197
Размер потока : 2,59 Гбайт (94%)
Цветовой диапазон : Limited
Аудио
Идентификатор : 0
Формат : AC-3
Формат/Информация : Audio Coding 3
Расширение режима : CM (complete main)
Параметр Endianness формата : Big
Идентификатор кодека : 2000
Продолжительность : 3 ч. 1 м.
Вид битрейта : Постоянный
Битрейт : 128 Кбит/сек
Каналы : 2 канала
Расположение каналов : Front: L R
Частота : 48,0 КГц
Битовая глубина : 16 бит
Метод сжатия : С потерями
Размер потока : 166 Мбайт (6%)
Выравнивание : Соединение по промежуткам
Продолжительность промежутка : 40 мс. (1,00 видеокадр)

Скринлист

Скриншоты

                             

XP1971

Пост 01-Апр-2017 20:22

[Цитировать]

-Сибирский бурильщик-- Страна: Russia
Год выпуска: 2009 г.
Режиссер: Сергей Логинов
Продолжительность: 02:38:00
Жанр: Feature, Russian Girls, Teens
Оригинальный аудиопоток: русский
Студия: Кинокомпания «Клубничка»-В ролях:
Дмитрий Стрелков, Люся Ресничкина,
Тина Радзивилл, Лида Хорошева-Описание:
В Москву, к продюсеру «Клубнички» Сергею Логинову приезжает молодой шахтёр из Сибири Дмитрий. Герой таёжных рудников собирается перечпокать всех девушек западной части России. Много текста, шуток и прибауток, грубости, глупости и пошлости. Таких фильмов вам прежде смотреть не приходилось! Это что-то с чем-то! Ускоренные моменты, где участники событий говорят комичными голосами дополнены короткими клиповыми кусочками под музыку, посвящёнными попочкам, сисечкам, вульвочкам и процессу фривольного миньетирования. В некоторой смысле треть фильма представляет собой видеоклип. Вскорости половое глумленье уже вовсю бздит в пространстве. У девушки, засосавшей глубоко в рот, требуют признать факт засоса в культурно-оценочном варианте. Другой девице засунули член в жопу и чпокают её в самую изюминку, якобы для коррекции попы. Третьей девице во влагалище заливают антисептик и потом все вместе дружно ищут её мочеиспускательный канал чтобы залить и туда, но найти канал не смогли! А ещё Дима с продюсером разглядывали и разнюхивали девичьи письки. В итоге одну девицу трахнули 1 раз, вторую 2 раза, а третью тоже 2 раза, но коротко. Бытие наполнилось ржачкой, а девичья морда спуском. В конце фильма, удовлетворённый шахтёр экспромтом бренчит на гитаре песни в духе «Девочки красивые любят [email protected]/* */..» и «Но в Сибири и на Дальнем Востоке можно драть их за бутылку пива…», а также «в жопу можно не давать, но сосать обязаны…», заканчивая перлом «Я люблю сношацца каждый день, но здоровья нужно очень много, благо я метис, я сибиряк, член от бога, член от бога»... Приятного просмотра.-
Контейнер: AVI
Аудио кодек: AC3
Видео кодек: AVC
Cубтитры: отсутствуют
Качество видео: DVDRip
Аудио: Advanced Audio | 48.0 KHz | 2 ch | 128.0 Kbps
Видео: AVC | 720х576 | 2044 Кbps | 25.0 fps | 0.197 bit/pixel

Media Info

Код:
Общее
Полное имя : Сибирский бурильщик_[...].avi
Формат : AVI
Формат/Информация : Audio Video Interleave
Профиль формата : OpenDML
Размер файла : 2,41 Гбайт
Продолжительность : 2 ч. 38 м.
Общий поток : 2182 Кбит/сек
Программа кодирования : Lavf56.36.100
Видео
Идентификатор : 1
Формат : AVC
Формат/Информация : Advanced Video Codec
Профиль формата : [email protected]/*  */
Параметр CABAC формата : Да
Параметр ReFrames формата : 1 кадр
Параметр GOP формата : M=1, N=25
Идентификатор кодека : H264
Продолжительность : 2 ч. 38 м.
Битрейт : 2044 Кбит/сек
Ширина : 720 пикселей
Высота : 576 пикселей
Соотношение сторон : 16:9
Соотношение сторон в оригинале : 1,738
Частота кадров : 25,000 кадров/сек
Стандарт вещания : PAL
Цветовое пространство : YUV
Субдискретизация насыщенности : 4:2:0
Битовая глубина : 8 бит
Тип развёртки : Прогрессивная
Бит/(Пиксели*Кадры) : 0.197
Размер потока : 2,26 Гбайт (94%)
Цветовой диапазон : Limited
Аудио
Идентификатор : 0
Формат : AC-3
Формат/Информация : Audio Coding 3
Расширение режима : CM (complete main)
Параметр Endianness формата : Big
Идентификатор кодека : 2000
Продолжительность : 2 ч. 38 м.
Вид битрейта : Постоянный
Битрейт : 128 Кбит/сек
Каналы : 2 канала
Расположение каналов : Front: L R
Частота : 48,0 КГц
Битовая глубина : 16 бит
Метод сжатия : С потерями
Размер потока : 145 Мбайт (6%)
Выравнивание : Соединение по промежуткам
Продолжительность промежутка : 40 мс. (1,00 видеокадр)

Скринлист

Скриншоты

                                         

XP1971

Пост 14-Янв-2017 00:31

[Цитировать]

-Секс в публичном туалете с Катариной -- Режиссер: N/A
Страна: Россия
Год выпуска: 2010 г.
Студия: MyPickupGirls
Жанр: PickUp, Outdoor, Teen
Продолжительность: 00:41:48
Оригинальный аудиопоток: русский-В ролях:
Katarina-Описание:
Москва никогда не спит, как и столичные пикаперы, которым страсть как хочется поглубже узнать природу женской психики и физиологии. За денежку канешна. А с таким носом, как у Катарины, у неё отродясь не было шансов даже с бомжами сцаными, а тут экий новогодний подарочек - пара не жадных кобельков. Коктейль ей купили, отодрали душевно, кулаком по пояснице во время оргазма не били, ещё и денег дали. Вот так и поверишь в новогодние чудеса. В раздаче присутствуют 75 фото Катарины до, во время и после этого самого занимательнага процесса предновогоднего мимолётнага знакомства. Присутствуют диалоги.-
Контейнер: AVI
Аудио кодек: MP3
Видео кодек: VC-1
Cубтитры: английские
Качество видео: SiteRip
Формат субтитров: hardsub (неотключаемые)
Аудио: MPEG Audio | 48.0 KHz | 2 ch | 128.0 Kbps
Видео: WMV3 | 1204х576 | 1715 Кbps | 30.0 fps | 0.097 bit/pixel

Media Info

Общее
Полное имя : Sex in public toilet with a sexy brunette (Katarina)_[pirat.ca].avi
Формат : AVI
Формат/Информация : Audio Video Interleave
Размер файла : 555 Мбайт
Продолжительность : 41 м.
Общий поток : 1857 Кбит/сек
Программа кодирования : Lavf52.84.0
Видео
Идентификатор : 0
Формат : VC-1
Идентификатор кодека : WMV3
Идентификатор кодека/Информация : Windows Media Video 9
Идентификатор кодека/Подсказка : WMV3
Продолжительность : 41 м.
Битрейт : 1715 Кбит/сек
Ширина : 1024 пикселя
Высота : 576 пикселей
Соотношение сторон : 16:9
Частота кадров : 30,000 кадров/сек
Битовая глубина : 8 бит
Метод сжатия : С потерями
Бит/(Пиксели*Кадры) : 0.097
Размер потока : 513 Мбайт (92%)
Аудио
Идентификатор : 1
Формат : MPEG Audio
Версия формата : Version 1
Профиль формата : Layer 3
Режим : Joint stereo
Расширение режима : MS Stereo
Идентификатор кодека : 55
Идентификатор кодека/Подсказка : MP3
Продолжительность : 41 м.
Вид битрейта : Постоянный
Битрейт : 128 Кбит/сек
Каналы : 2 канала
Частота : 48,0 КГц
Метод сжатия : С потерями
Размер потока : 38,3 Мбайт (7%)
Выравнивание : Соединение по промежуткам
Продолжительность промежутка : 24 мс. (0,72 видеокадр)
Время предзагрузки промежутка : 24 мс.
Библиотека кодирования : LAME3.98.4

Скринлист

Скриншоты

                             
 

Текущее время: Сегодня 22:35

Часовой пояс: GMT + 3